## // SAMLINGSTRÅD FÖR PROBLEM \\ ##

Moderator: otto

whitepointer67
Inlägg: 9
Blev medlem: sön sep 24, 2017 11:23 am

Re: ## // SAMLINGSTRÅD FÖR PROBLEM \\ ##

Inläggav whitepointer67 » lör jul 21, 2018 10:22 am

Hej, Undrar bara varför Viasat Golf krånglar medan Sky sports golf och NBC Golf funkar klockrent?

FreddyK
Inlägg: 3088
Blev medlem: ons okt 19, 2016 5:15 pm

Re: ## // SAMLINGSTRÅD FÖR PROBLEM \\ ##

Inläggav FreddyK » lör jul 21, 2018 12:16 pm

För att det är olika källor till kanalerna och alternativet är ingen Viasat Golf alls.
TVHeadend, Kodi, Dreambox/Enigma2 , RaspberryPi 3/LibreELEC
Xiaomi Mi Box/Live Channels + TVirl & TVheadend addon, TVIP410

kaffeberoende
Inlägg: 124
Blev medlem: tis aug 23, 2016 1:37 pm

Re: ## // SAMLINGSTRÅD FÖR PROBLEM \\ ##

Inläggav kaffeberoende » lör jul 21, 2018 10:24 pm

FreddyK skrev:Inga problem med textning här.
Det du kör klarar nog inte av texttv textning som används.
Kanalen är däremot inte HD längre sen CD beslutade sig att stänga ner den och där kördes DVB textning.


Jag kör en Mag 254 och alla andra kanaler klarar av undertext. Det är bara Travel Chanel som inte visar undertexter. Även en släkting till mig (vi köpte boxen samtidigt) har samma problem.

FreddyK
Inlägg: 3088
Blev medlem: ons okt 19, 2016 5:15 pm

Re: ## // SAMLINGSTRÅD FÖR PROBLEM \\ ##

Inläggav FreddyK » sön jul 22, 2018 11:50 am

Märkligt att det fungerar för mig med TVheadend + Kodi då.
Så texten finns där och inte ens TVheadend kan trolla fram en text som inte finns utan bara konvertera om TextTV textning så det fungerar i Kodi.

Output från FFMPEG:
Input #0, mpegts, from 'http://tv.iptvking.iptv.uno:80/live/****/****/14428.ts':
Duration: N/A, start: 6339.920600, bitrate: 3692 kb/s
Program 1
Metadata:
service_name : Service01
service_provider: FFmpeg
Stream #0:0[0x100]: Video: mpeg2video (Main) ([2][0][0][0] / 0x0002), yuv420p(tv, top first), 720x576 [SAR 64:45 DAR 16:9], 3500 kb/s, 25 fps, 25 tbr, 90k tbn, 50 tbc
Stream #0:1[0x101](eng): Audio: mp2 ([3][0][0][0] / 0x0003), 48000 Hz, stereo, fltp, 192 kb/s
Stream #0:2[0x102](eng,swe,nor,dan): Subtitle: dvb_teletext ([6][0][0][0] / 0x0006), 492x250
TVHeadend, Kodi, Dreambox/Enigma2 , RaspberryPi 3/LibreELEC
Xiaomi Mi Box/Live Channels + TVirl & TVheadend addon, TVIP410

otto
Inlägg: 646
Blev medlem: sön sep 24, 2017 3:05 pm

Re: ## // SAMLINGSTRÅD FÖR PROBLEM \\ ##

Inläggav otto » sön jul 22, 2018 4:15 pm

Hejsan
´jag har inga problem med Viasat golf alls, det enda är ibland är den på engelska
har skrivit till admin och bett teknikerna kika på om det är något fel
Vänligen
OttO

Nemesisspanks
Inlägg: 8
Blev medlem: tor jul 19, 2018 10:25 pm

Re: ## // SAMLINGSTRÅD FÖR PROBLEM \\ ##

Inläggav Nemesisspanks » mån jul 23, 2018 8:05 am

Vill bara säga till angående ”viasat series” den ena har bara dansk text, och den andra visar bara svart med ljud. Har redan rapporterat kanalerna på boxen.

Nicko35
Inlägg: 64
Blev medlem: tor maj 17, 2018 10:06 am

Re: ## // SAMLINGSTRÅD FÖR PROBLEM \\ ##

Inläggav Nicko35 » tis jul 24, 2018 7:51 pm

Alla mina kanaler ligger nere,har startat om och portalen laddas som den skall och kanallistorna kommer upp som dom skall men det är svart på alla

Pontus
Inlägg: 1
Blev medlem: tis jul 24, 2018 7:50 pm

Re: ## // SAMLINGSTRÅD FÖR PROBLEM \\ ##

Inläggav Pontus » tis jul 24, 2018 7:55 pm

Mina kanaler ligger också nere, men VOD funkar för mig så länge jag inte stänger av appen för då får jag check playlist

Slime
Inlägg: 3
Blev medlem: lör mar 24, 2018 6:20 pm

Re: ## // SAMLINGSTRÅD FÖR PROBLEM \\ ##

Inläggav Slime » tis jul 24, 2018 8:07 pm

Allt mitt ligger nere, startade om min box men nu står det bara 504 gateway time-out.

FreddyK
Inlägg: 3088
Blev medlem: ons okt 19, 2016 5:15 pm

Re: ## // SAMLINGSTRÅD FÖR PROBLEM \\ ##

Inläggav FreddyK » tis jul 24, 2018 8:11 pm

Kanalerna fungerar om man har en nerladdad kanallista.
TVHeadend, Kodi, Dreambox/Enigma2 , RaspberryPi 3/LibreELEC
Xiaomi Mi Box/Live Channels + TVirl & TVheadend addon, TVIP410


Återgå till "Skandinaviska"

Vilka är online

Användare som besöker denna kategori: 15 och 0 gäster